Jump to content
Türk Anime TV Forum
Huseyinekrem

Initial D Movie: Legend 1 - Awakening

Önerilen İletiler

new-initial-d-movie-legend-1-awakening.3

Initial D - Awakening
:Yapım Yılı:
2014
:Süre:
62 Dakika
:Tür:
Aksiyon, Arabalar, Seinen
:Çeviri:
HüseyinEkrem
:Zamanlama:
Todd Perkins

Orjinal serinin yeni baştan, Movie şeklinde, özetlenerek kaliteli bir çizimle yeniden yapılmış halidir.
Henüz sadece 2 movie çıktı ve üçüncüsüyse henüz çıkmadı. Şuan ilkini paylaşıyorum.
İkinci bölümü'de bir ara çeviririm. Sadece Altyazıyı isteyenler buraya tıklayabilirler.

Meraklısına Medya Çıktısı
 

Spoiler

General
Unique ID                   : 216496067907189993472112457815043022907 (0xA2DFA041B2674B88A997EFF335DB203B)
Complete name               : D:\Initial D Awakening.mkv
Format                      : Matroska
Format version              : Version 4 / Version 2
File size                   : 1.15 GiB
Duration                    : 1h 2mn
Overall bit rate            : 2 625 Kbps
Encoded date                : UTC 2016-08-09 15:55:08
Writing application         : mkvmerge v8.4.0 ('A better way to fly') 64bit
Writing library             : libebml v1.3.1 + libmatroska v1.4.2

Video
ID                          : 1
Format                      : AVC
Format/Info                 : Advanced Video Codec
Format profile              : Main@L4
Format settings, CABAC      : Yes
Format settings, ReFrames   : 4 frames
Codec ID                    : V_MPEG4/ISO/AVC
Duration                    : 1h 2mn
Bit rate                    : 2 430 Kbps
Width                       : 1 920 pixels
Height                      : 1 080 pixels
Display aspect ratio        : 16:9
Frame rate mode             : Variable
Frame rate                  : 23.976 (24000/1001) fps
Color space                 : YUV
Chroma subsampling          : 4:2:0
Bit depth                   : 8 bits
Scan type                   : Progressive
Bits/(Pixel*Frame)          : 0.049
Stream size                 : 1.06 GiB (93%)
Writing library             : x264 core 142 r2479 dd79a61
Encoding settings           : cabac=1 / ref=1 / deblock=1:1:1 / analyse=0x1:0x111 / me=umh / subme=2 / psy=1 / psy_rd=0.40:0.00 / mixed_ref=0 / me_range=16 / chroma_me=1 / trellis=0 / 8x8dct=0 / cqm=0 / deadzone=21,11 / fast_pskip=1 / chroma_qp_offset=0 / threads=12 / lookahead_threads=8 / sliced_threads=0 / nr=0 / decimate=1 / interlaced=0 / bluray_compat=0 / constrained_intra=0 / bframes=5 / b_pyramid=2 / b_adapt=2 / b_bias=0 / direct=3 / weightb=1 / open_gop=0 / weightp=1 / keyint=240 / keyint_min=24 / scenecut=40 / intra_refresh=0 / rc_lookahead=10 / rc=crf / mbtree=1 / crf=18.0 / qcomp=0.60 / qpmin=0 / qpmax=69 / qpstep=4 / vbv_maxrate=20000 / vbv_bufsize=25000 / crf_max=0.0 / nal_hrd=none / filler=0 / ip_ratio=1.40 / aq=1:0.60
Default                     : Yes
Forced                      : No
Color range                 : Limited
Color primaries             : BT.709
Transfer characteristics    : BT.709
Matrix coefficients         : BT.709

Audio
ID                          : 2
Format                      : MPEG Audio
Format version              : Version 1
Format profile              : Layer 3
Mode                        : Joint stereo
Mode extension              : MS Stereo
Codec ID                    : A_MPEG/L3
Codec ID/Hint               : MP3
Duration                    : 1h 2mn
Bit rate mode               : Constant
Bit rate                    : 192 Kbps
Channel(s)                  : 2 channels
Sampling rate               : 48.0 KHz
Frame rate                  : 41.667 fps (1152 spf)
Compression mode            : Lossy
Stream size                 : 86.0 MiB (7%)
Writing library             : LAME3.98
Language                    : Japanese
Default                     : Yes
Forced                      : No

Text
ID                          : 3
Format                      : ASS
Codec ID                    : S_TEXT/ASS
Codec ID/Info               : Advanced Sub Station Alpha
Duration                    : 1h 1mn
Bit rate                    : 122 bps
Count of elements           : 806
Compression mode            : Lossless
Stream size                 : 55.3 KiB (0%)
Default                     : Yes
Forced                      : Yes

Menu
00:00:00.000                : en:Chapter 1
00:03:11.608                : en:Chapter 2
00:12:27.621                : en:Chapter 3
00:16:54.013                : en:Chapter 4
00:22:15.375                : en:Chapter 5
00:26:52.611                : en:Chapter 6
00:34:36.324                : en:Chapter 7
00:45:21.176                : en:Chapter 8
00:49:33.220                : en:Chapter 9
00:53:30.457                : en:Chapter 10
00:58:31.382                : en:Chapter 11
01:01:26.766                : en:Chapter 12

 



İndirme Bağlantısı
WYr8MY.png

İletiyi paylaş


İletiye bağlantı
Sitelerde Paylaş

Hesap oluşturun veya yorum yazmak için oturum açın

Yorum yapmak için üye olmanız gerekiyor

Hesap oluştur

Hesap oluşturmak ve bize katılmak çok kolay.

Hesap Oluştur

Giriş yap

Zaten bir hesabınız var mı? Buradan giriş yapın.

Giriş Yap


  • Konuyu Görüntüleyenler   0 kullanıcı

    Sayfayı görüntüleyen kayıtlı kullanıcı bulunmuyor.

×